Disco Fries, Niko The Kid - The Light Feat. Niko The Kid (club M Other / Pictures / Pictures - Other

  • 13.3 MB
  • 1Seeds
  • 0 Leeches
  • Jul 2014

Highspeed Download Download torrent Magnet link


Sources: Torrentdownloadz, Kickasstorrents, Yourbittorrent, Bittorrentz, Bitsnoop, Limetorrents, Seedpeer

Torrent file Description(s):

Server: Torrentdownloadz

http://www.beatport.com/track/the-light-feat-niko-the-kid-club-mix/5554034 Format : MPEG Audio File size : 13.3 MiB Duration : 5mn 46s Overall bit rate mode : Constant Overall bit rate : 320 Kbps Track name : The Light (feat. Niko The Kid) (Club Mix) Performer : Disco Fries Genre : Progressive House Recorded date : 2014 Writing library : LAME3.93 Cover : Yes Cover type : Cover (front) Cover MIME : image/jpg Audio Format : MPEG Audio Format version : Version 1 Format profile : Layer 3 Duration : 5mn 47s Bit rate mode : Constant Bit rate : 320 Kbps Channel(s) : 2 channels Sampling rate : 44.1 KHz Compression mode : Lossy Stream size : 13.2 MiB (99%) Writing library : LAME3.93 Encoding settings : -m s -V 4 -q 2 -lowpass 21.4

Server: Kickasstorrents

http://www.beatport.com/track/the-light-feat-niko-the-kid-club-mix/5554034
Format : MPEG Audio
File size : 13.3 MiB
Duration : 5mn 46s
Overall bit rate mode : Constant
Overall bit rate : 320 Kbps
Track name : The Light (feat. Niko The Kid) (Club Mix)
Performer : Disco Fries
Genre : Progressive House
Recorded date : 2014
Writing library : LAME3.93
Cover : Yes
Cover type : Cover (front)
Cover MIME : image/jpg
Audio
Format : MPEG Audio
Format version : Version 1
Format profile : Layer 3
Duration : 5mn 47s
Bit rate mode : Constant
Bit rate : 320 Kbps
Channel(s) : 2 channels
Sampling rate : 44.1 KHz
Compression mode : Lossy
Stream size : 13.2 MiB (99%)
Writing library : LAME3.93
Encoding settings : -m s -V 4 -q 2 -lowpass 21.4
Real 320 kbps

Server: Yourbittorrent

Thanks for downloading Disco Fries, Niko The Kid - The Light Feat. Niko The Kid (club M, please keep seeding and give this torrent life!

Comments:

  • Walisso708

    only good song

Leave a Comment

Your Name:

Your Comment:

Files (1):

  • Disco Fries – The Light (feat. Niko The Kid) [Club Mix].mp3 (13.3 MB)