Heroes S04E16 Pass Or Fail HDTV XviD LOL avi Video / Unsorted

  • 373 MB
  • 0Seeds
  • 0 Leeches
  • Jan 2010

Highspeed Download Download torrent Magnet link


Sources: Torrentreactor

Torrent file Description(s):

Server: Torrentreactor

Format : AVI Format/Info : Audio Video Interleave Duration : 1h 34mn Overall bit rate : 2 087 Kbps Writing application : VirtualDubMod 1.5.10.2 (build 2540/release) Writing library : VirtualDub build 28346/release Video Format : MPEG-4 Visual Format profile : Streaming Video@L1 Format settings, BVOP : Yes Format settings, QPel : No Format settings, GMC : No warppoints Format settings, Matrix : Default Codec ID : XVID Codec ID/Hint : XviD Duration : 1h 34mn Bit rate : 1 950 Kbps Width : 720 pixels Height : 400 pixels Display aspect ratio : 16/9 Frame rate : 23.976 fps Resolution : 24 bits Colorimetry : 4:2:0 Scan type : Progressive Bits/(Pixel*Frame) : 0.282 Stream size : 1.29 GiB (93%) Writing library : XviD 1.2.1 (UTC 2008-12-04) Audio Format : MPEG Audio Format version : Version 1 Format profile : Layer 3 Codec ID : 55 Codec ID/Hint : MP3 Duration : 1h 34mn Bit rate mode : Constant Bit rate : 128 Kbps Channel(s) : 2 channels Sampling rate : 44.1 KHz Resolution : 16 bits Video delay : 8s 0ms Stream size : 86.7 MiB (7%) Alignment : Split accross interleaves Interleave, duration : 42 ms (1.00 video frame) Interleave, preload duration : 500 ms

Leave a Comment

Your Name:

Your Comment:

Files (1):

  • Heroes S04E16 Pass Or Fail HDTV XviD LOL avi (373 MB)