Одержимая дьяволом / Malabimba (1979) DVDRip-AVC Video / ru

  • 1.4 GB
  • 0Seeds
  • 0 Leeches
  • Oct 2010

Highspeed Download Download torrent Magnet link


Sources: Baratro, Rutor, Filesh, Monova

Torrent file Description(s):

Server: Rutor

Одержимая дьяволом / Malabimba /1979/ AVC
Не рекомендуется просмотр детям и подросткам моложе 18 лет.
Информация о фильме:
Название: Одержимая дьяволом
Оригинальное название: Malabimba / Possession of a Teenager / Posesion de una adolescente
Год выхода: 1979
Жанр: Ужасы, Мистика, Эротика
Режиссер: Андреа Бьянки /Andrea Bianchi/
Сценарист: Пьеро Реньоли /Piero Regnoli/
Операторы: Анжело Виаденчи /Angelo Viadenci/, Франко Вилла /Franco Villa
Композиторы: Элзио Манкусо /Elsio Mancuso/, Берто Писано /Berto Pisano/
В фильме снимались:
Катель Лэйнец - Katell Laennec /Bimba Karoli/
Патриция Вэблей - Patrizia Webley /Nais/
Энзо Фисичелла - Enzo Fisichella /Andrea Karoli/
Джузеппе Марокку - Giuseppe Maroccu /Adolfo Karoli/
Элиза Майнарди - Elisa Mainardi /The Medium/
Джанкарло Дел Дука - Giancarlo Del Duca /Giorgio/
Пупита Ли - Pupita Lea /Andrea's Mother/
Марианджела Джордано - Mariangela Giordano /Sister Sofia/
и другие...
Описание: Во время спиритического сеанса в старинном замке семья аристократов вызывает дух Лукреции Борджии, который вселяется в дочьку одного из членов семейства. Её одержимость проявляется в неуёмном желании совокуплений…
Страна:
Выпущено: Filmarte
Продолжительность: 01:28:17
Перевод: Авторский, одноголосый /закадровый/ Неопознан
Субтитры: Английские VobSub /в отдельной папке/
MediaInfo Format : Matroska
File size : 1.36 GiB
Duration : 1h 28mn
Overall bit rate : 2 204 Kbps
Encoded date : UTC 2010-10-14 09:10:48
Writing application : mkvmerge v4.0.0 ('The Stars were mine') сборка от Jun 6 2010 16:18:42
Writing library : libebml v1.0.0 + libmatroska v1.0.0
Video
ID : 1
Format : AVC
Format/Info : Advanced Video Codec
Format profile : High@L3.0
Format settings, CABAC : Yes
Format settings, ReFrames : 4 frames
Muxing mode : Container profile=Unknown@3.0
Codec ID : V_MPEG4/ISO/AVC
Duration : 1h 28mn
Nominal bit rate : 1 817 Kbps
Width : 768 pixels
Height : 432 pixels
Display aspect ratio : 16:9
Frame rate : 23.976 fps
Color space : YUV
Chroma subsampling : 4:2:0
Bit depth : 8 bits
Scan type : Progressive
Bits/(Pixel*Frame) : 0.228
Writing library : x264 core 92 r1510 33d382a
Encoding settings : cabac=1 / ref=1 / deblock=1:0:0 / analyse=0x3:0x3 / me=dia / subme=1 / psy=1 / psy_rd=0.00:0.00 / mixed_ref=0 / me_range=16 / chroma_me=1 / trellis=0 / 8x8dct=1 / cqm=0 / deadzone=21,11 / fast_pskip=1 / chroma_qp_offset=0 / threads=1 / sliced_threads=0 / nr=0 / decimate=1 / interlaced=0 / constrained_intra=0 / bframes=3 / b_pyramid=2 / b_adapt=1 / b_bias=0 / direct=1 / wpredb=1 / wpredp=0 / keyint=250 / keyint_min=25 / scenecut=40 / intra_refresh=0 / rc=abr / mbtree=0 / bitrate=1817 / ratetol=1.0 / qcomp=0.60 / qpmin=10 / qpmax=51 / qpstep=4 / ip_ratio=1.40 / pb_ratio=1.30 / aq=1:1.00
Language : Italian
Audio #1
ID : 2
Format : AAC
Format/Info : Advanced Audio Codec
Format version : Version 4
Format profile : LC
Format settings, SBR : No
Codec ID : A_AAC
Duration : 1h 28mn
Channel(s) : 2 channels
Channel positions : Front: L R
Sampling rate : 48.0 KHz
Title : Авторский одноголосый
Language : Russian
Audio #2
ID : 3
Format : AC-3
Format/Info : Audio Coding 3
Mode extension : CM (complete main)
Codec ID : A_AC3
Duration : 1h 28mn
Bit rate mode : Constant
Bit rate : 192 Kbps
Channel(s) : 2 channels
Channel positions : Front: L R
Sampling rate : 48.0 KHz
Bit depth : 16 bits
Stream size : 121 MiB (9%)
Title : Оригинальный
Language : Italian
Качество: DVDRip-AVC /Исходник DVD9/
Формат: MKV
Видео кодек: x264
Аудио кодек: AAC / AC3
Видео: MPEG4 Video (H264) 768x432 23.98fps, ~1817 kbps avg, 0.22 bit/pixel
Аудио 1: AAC, 192kbps, 2 channels, 16bit, 48000khz /Русский/
Аудио 2: AC3, 192kbps, 2 channels, 16bit, 48000khz /Оригинальный/
Скриншоты
Автор рипа:

Server: Filesh

Одержимая дьяволом / Malabimba /1979/ AVC
Не рекомендуется просмотр детям и подросткам моложе 18 лет.
Информация о фильме:
Название: Одержимая дьяволом
Оригинальное название: Malabimba / Possession of a Teenager / Posesion de una adolescente
Год выхода: 1979
Жанр: Ужасы, Мистика, Эротика
Режиссер: Андреа Бьянки /Andrea Bianchi/
Сценарист: Пьеро Реньоли /Piero Regnoli/
Операторы: Анжело Виаденчи /Angelo Viadenci/, Франко Вилла /Franco Villa
Композиторы: Элзио Манкусо /Elsio Mancuso/, Берто Писано /Berto Pisano/
В фильме снимались:
Катель Лэйнец - Katell Laennec /Bimba Karoli/
Патриция Вэблей - Patrizia Webley /Nais/
Энзо Фисичелла - Enzo Fisichella /Andrea Karoli/
Джузеппе Марокку - Giuseppe Maroccu /Adolfo Karoli/
Элиза Майнарди - Elisa Mainardi /The Medium/
Джанкарло Дел Дука - Giancarlo Del Duca /Giorgio/
Пупита Ли - Pupita Lea /Andrea's Mother/
Марианджела Джордано - Mariangela Giordano /Sister Sofia/
и другие...
Описание: Во время спиритического сеанса в старинном замке семья аристократов вызывает дух Лукреции Борджии, который вселяется в дочьку одного из членов семейства. Её одержимость проявляется в неуёмном желании совокуплений…
Страна:
Выпущено: Filmarte
Продолжительность: 01:28:17
Перевод: Авторский, одноголосый /закадровый/ Неопознан
Субтитры: Английские VobSub /в отдельной папке/
MediaInfo Format : Matroska
File size : 1.36 GiB
Duration : 1h 28mn
Overall bit rate : 2 204 Kbps
Encoded date : UTC 2010-10-14 09:10:48
Writing application : mkvmerge v4.0.0 ('The Stars were mine') сборка от Jun 6 2010 16:18:42
Writing library : libebml v1.0.0 + libmatroska v1.0.0
Video
ID : 1
Format : AVC
Format/Info : Advanced Video Codec
Format profile : High@L3.0
Format settings, CABAC : Yes
Format settings, ReFrames : 4 frames
Muxing mode : Container profile=Unknown@3.0
Codec ID : V_MPEG4/ISO/AVC
Duration : 1h 28mn
Nominal bit rate : 1 817 Kbps
Width : 768 pixels
Height : 432 pixels
Display aspect ratio : 16:9
Frame rate : 23.976 fps
Color space : YUV
Chroma subsampling : 4:2:0
Bit depth : 8 bits
Scan type : Progressive
Bits/(Pixel*Frame) : 0.228
Writing library : x264 core 92 r1510 33d382a
Encoding settings : cabac=1 / ref=1 / deblock=1:0:0 / analyse=0x3:0x3 / me=dia / subme=1 / psy=1 / psy_rd=0.00:0.00 / mixed_ref=0 / me_range=16 / chroma_me=1 / trellis=0 / 8x8dct=1 / cqm=0 / deadzone=21,11 / fast_pskip=1 / chroma_qp_offset=0 / threads=1 / sliced_threads=0 / nr=0 / decimate=1 / interlaced=0 / constrained_intra=0 / bframes=3 / b_pyramid=2 / b_adapt=1 / b_bias=0 / direct=1 / wpredb=1 / wpredp=0 / keyint=250 / keyint_min=25 / scenecut=40 / intra_refresh=0 / rc=abr / mbtree=0 / bitrate=1817 / ratetol=1.0 / qcomp=0.60 / qpmin=10 / qpmax=51 / qpstep=4 / ip_ratio=1.40 / pb_ratio=1.30 / aq=1:1.00
Language : Italian
Audio #1
ID : 2
Format : AAC
Format/Info : Advanced Audio Codec
Format version : Version 4
Format profile : LC
Format settings, SBR : No
Codec ID : A_AAC
Duration : 1h 28mn
Channel(s) : 2 channels
Channel positions : Front: L R
Sampling rate : 48.0 KHz
Title : Авторский одноголосый
Language : Russian
Audio #2
ID : 3
Format : AC-3
Format/Info : Audio Coding 3
Mode extension : CM (complete main)
Codec ID : A_AC3
Duration : 1h 28mn
Bit rate mode : Constant
Bit rate : 192 Kbps
Channel(s) : 2 channels
Channel positions : Front: L R
Sampling rate : 48.0 KHz
Bit depth : 16 bits
Stream size : 121 MiB (9%)
Title : Оригинальный
Language : Italian
Качество: DVDRip-AVC /Исходник DVD9/
Формат: MKV
Видео кодек: x264
Аудио кодек: AAC / AC3
Видео: MPEG4 Video (H264) 768x432 23.98fps, ~1817 kbps avg, 0.22 bit/pixel
Аудио 1: AAC, 192kbps, 2 channels, 16bit, 48000khz /Русский/
Аудио 2: AC3, 192kbps, 2 channels, 16bit, 48000khz /Оригинальный/
Скриншоты
Автор рипа:

Comments:

  • Sarque

    Фильм - изрядная фигня, даже с учетом поправки на время съемки. Но раздающему спасибо!

  • videoman555

    правильное название фильма - зловредная сучка

  • Paster Shlack

    вселяется в дочьdownload Одержимая дьяволом / Malabimba (1979) DVDRip-AVCку одного из членов семейства. Ну хорошо хоть не в Жучку, а то я уж очковать началdownload Одержимая дьяволом / Malabimba (1979) DVDRip-AVC.

  • С.Карпов

    Поддержите раздачу. Спасибо.

Leave a Comment

Your Name:

Your Comment:

Files (3):

  • Eng Subs / Malabimba.sub (2.3 MB)
  • Eng Subs / Malabimba.idx (31 KB)
  • Malabimba.mkv (1.4 GB)