Wonder Woman 2017 HDTS ()ACE() Other / Misc Size: 909.82 MB / Movies

  • 910 MB
  • 3056Seeds
  • 323 Leeches
  • Jun 2017

Highspeed Download Download torrent Magnet link


Sources: Btscene, Torrentbit

Torrent file Description(s):

Server: Btscene

Wonder Woman 2017 HDTS ()ACE()
INFO:
Format : AVI
Format/Info : Audio Video Interleave
File size : 910 MiB
Duration : 2h 10mn
Overall bit rate : 974 Kbps
Writing library : VirtualDub build 35390/release
Video
ID : 0
Format : MPEG-4 Visual
Format profile : Advanced /* */
Format settings, BVOP : 2
Format settings, QPel : No
Format settings, GMC : No warppoints
Format settings, Matrix : Default (H.263)
Muxing mode : Packed bitstream
Codec ID : XVID
Codec ID/Hint : XviD
Duration : 2h 10mn
Bit rate : 850 Kbps
Width : 640 pixels
Height : 260 pixels
Display aspect ratio : 2.462
Frame rate : 30.167 fps
Color space : YUV
Chroma subsampling : 4:2:0
Bit depth : 8 bits
Scan type : Progressive
Compression mode : Lossy
Bits/(Pixel*Frame) : 0.169
Stream size : 794 MiB (87%)
Writing library : XviD 73
Screens:

Server: Torrentbit

Wonder Woman 2017 HDTS ()ACE() INFO: Format : AVI Format/Info : Audio Video Interleave File size : 910 MiB Duration : 2h 10mn Overall bit rate : 974 Kbps Writing library : VirtualDub build 35390/release Video ID : 0 Format : MPEG-4 Visual Format profile : Advanced /* */ Format settings, BVOP : 2 Format settings, QPel : No Format settings, GMC : No warppoints Format settings, Matrix : Default (H.263) Muxing mode : Packed bitstream Codec ID : XVID Codec ID/Hint : XviD Duration : 2h 10mn Bit rate : 850 Kbps Width : 640 pixels Height : 260 pixels Display aspect ratio : 2.462 Frame rate : 30.167 fps Color space : YUV Chroma subsampling : 4:2:0 Bit depth : 8 bits Scan type : Progressive Compression mode : Lossy Bits/(Pixel*Frame) : 0.169 Stream size : 794 MiB (87%) Writing library : XviD 73 Screens:

Leave a Comment

Your Name:

Your Comment:

Files (1):

  • Wonder Woman 2017 HDTS ()ACE() (910 MB)